Skip to main content

moe. Live at Spartan Arena on 2013-03-23

by moe.



moe.
2013-03-23
Spartan Arena
Rutland, VT
snoe.down

DPA 4011 > V3 Digital > DR680 (24/96)
SDHC Card > Sound Forge Pro 10.0 (Normalize, fades, resample iZotope 64-Bit SRC, dither iZotope MBIT+ Dither) > CD Wav (tracking) > TLH > Flac (level 8)
DIN/FOB/DFC/approx. 6' high/approx. 30' from stage
Tags added in Foobar2000

Taped and Transferred by Brian V.

Set 1

01. 32 Things
02. Shoot First
03. Haze
04. Y.O.Y.
05. banter/Reid Genauer intro
06. Up On Cripple Creek*
07. Mexico*

Set 2

01. Buster >
02. Runaway Overlude
03. Where Does The Time Go?
04. Puebla >
05. Brent Black^ >
06. Mar-Dema^ >
07. Brent Black >
08. Meat >
09. Brent Black
10. encore break
11. al.nouncements
12. That Country Tune
13. Godzilla


Collection moe
Band/Artist moe.
Venue Spartan Arena
Location Rutland, VT

Source DPA 4011 > V3 Digital > DR680 (24/96)
Lineage SDHC Card > Sound Forge Pro 10.0 (Normalize, fades, resample iZotope 64-Bit SRC, dither iZotope MBIT+ Dither) > CD Wav (tracking) > TLH > Flac (level 8)
Taped by Brian V.
Transferred by Brian V.

Notes

^ memory card filled up during set 2 and about 5 minutes were lost. thanks to Mike for the patch. Patch source is AKG se300b/ck91 (FOB/DFC/30 ft. from stage) Edirol R-4 (Busman T-Mod) >R-4>usb>MacBook Pro>Audacity 1.3.7
Patch begings at 3:26 of Brent Black and ends at 1:43 of Mar-Dema

thanks to Scott for the clamp space and to all the blockers.
***Support Bands That Allow Taping/Trading***

flac fingerprints
moe2013-03-23s1t01.flac:c73432257b4eb0ab1aa1b016743108e5
moe2013-03-23s1t02.flac:a44fcccfb6c073a596596289d5eca42d
moe2013-03-23s1t03.flac:9e8e2ce690175ddb10b0819c61ed80cd
moe2013-03-23s1t04.flac:7d2bb296ba8129dd33d6742800b549c4
moe2013-03-23s1t05.flac:8c5bd461d2ee17941403f638c2605abb
moe2013-03-23s1t06.flac:f3597f8b4b2770fb5f8c46e469cd0ee6
moe2013-03-23s1t07.flac:7d9aa5c6daeccaa1caeefff12924a81d
moe2013-03-23s2t01.flac:90fdca3b81921bdeb8ee8a26b10f6e26
moe2013-03-23s2t02.flac:23ccb3c9cada47319b1c4514d07d9cdd
moe2013-03-23s2t03.flac:e3112cf98063932f3a4fbafe89ffd3a8
moe2013-03-23s2t04.flac:e652daddab1532e77ed187ca611109c9
moe2013-03-23s2t05.flac:c0215a01b28bb7b9c2b024957102c1d9
moe2013-03-23s2t06.flac:90ea959349d8c9cbe231566c719b96a9
moe2013-03-23s2t07.flac:7f50a6d7fe0a64f9d22496970f94f2c1
moe2013-03-23s2t08.flac:bf166bfc039d7c8d7612978e8e268985
moe2013-03-23s2t09.flac:83033c8240fdc18da99fa68281b2ecef
moe2013-03-23s2t10.flac:52b83be68c7da73f0f67daa0c6d59b79
moe2013-03-23s2t11.flac:b83ed0bda379f44580ba0b29bb72b124
moe2013-03-23s2t12.flac:83389fa56fba74078abfe89857ec5618
moe2013-03-23s2t13.flac:b9b2335bd8d3b907c36d9681a6b776db

shntool
length expanded size cdr WAVE problems fmt ratio filename
14:01.54 148479452 B --- -- ---xx flac 0.5392 moe2013-03-23s1t01.flac
5:39.30 59870204 B --- -- ---xx flac 0.5210 moe2013-03-23s1t02.flac
9:34.63 101401820 B --- -- ---xx flac 0.5681 moe2013-03-23s1t03.flac
5:43.22 60556988 B --- -- ---xx flac 0.5671 moe2013-03-23s1t04.flac
2:49.36 29896316 B --- -- ---xx flac 0.4349 moe2013-03-23s1t05.flac
13:20.24 141176492 B --- -- ---xx flac 0.5915 moe2013-03-23s1t06.flac
13:32.57 143370908 B --- -- ---xx flac 0.5911 moe2013-03-23s1t07.flac
15:58.72 169160588 B --- -- ---xx flac 0.5376 moe2013-03-23s2t01.flac
8:57.32 94802108 B --- -- ---xx flac 0.5225 moe2013-03-23s2t02.flac
9:05.40 96232124 B --- -- ---xx flac 0.5244 moe2013-03-23s2t03.flac
19:30.52 206510348 B --- -- ---xx flac 0.5170 moe2013-03-23s2t04.flac
5:40.02 59980748 B --- -- ---xx flac 0.5741 moe2013-03-23s2t05.flac
3:30.53 37168700 B --- -- ---xx flac 0.5585 moe2013-03-23s2t06.flac
8:25.37 89169068 B --- -- ---xx flac 0.5231 moe2013-03-23s2t07.flac
15:04.06 159479756 B --- -- ---xx flac 0.5560 moe2013-03-23s2t08.flac
6:45.07 71458508 B --- -- ---xx flac 0.6141 moe2013-03-23s2t09.flac
2:12.37 23371868 B --- -- ---xx flac 0.4597 moe2013-03-23s2t10.flac
4:06.08 43413260 B --- -- ---xx flac 0.4598 moe2013-03-23s2t11.flac
3:07.31 33059756 B --- -- ---xx flac 0.5606 moe2013-03-23s2t12.flac
6:56.51 73502396 B --- -- ---xx flac 0.5976 moe2013-03-23s2t13.flac
174:02.39 1842061408 B 0.5481 (20 files)

Reviews

Reviewer: axomxa - - March 27, 2013
Subject: FOB
Nice Bri. Proof once again that FOB is worth the aggravation of house hassles and blocking.
In Collection
moe.
In Collection
Live Music Archive
Uploaded by
Brian V.
on 3/26/2013
Views
1,231
Favorites
1
Reviews
1
PEOPLE ALSO FOUND
moe.
by moe.
117
0
0
Source: DPA 4011 > V3 Digital > R44 (24/96)
moe.
395
0
0
Source: DPA 4011 > V3 Digital > R44 (24/96)
moe.
by moe.
988
0
1
( 1 reviews )
Source: DPA 4011 > V3 Digital > R44 (24/96)
moe.
by moe.
418
0
0
Source: DPA 4011 > V3 Digital > R44 (24/96)
moe.
by moe.
115
0
0
Source: DPA 4011 > V3 Digital > R44 (24/48)
moe.
by moe.
116
0
0
Source: DPA 4011 > V3 Digital > R44 (24/96)
moe.
by moe.
174
0
1
( 1 reviews )
Source: DPA 4011 > V3 Digital > DR680 (24/96)
moe.
by moe.
1,789
0
1
( 1 reviews )
Source: DPA 4011 > V3 Digital > DR-680 (24/96)
moe.
by moe.
137
0
0
Source: AKG c214 > Silver Cables > FR-2LE [BA TMod] (24/96)
moe.
by moe.
132
0
0
Source: DPA 4011 > V3 Digital > R44 (24/96)